[Цитировать]

Судьба-охотник / Fate Is the Hunter

Слоган: «You have a date with fate!»
Страна: США
Студия: Arcola Pictures
Жанр: триллер, драма, детектив
Год выпуска: 1964
Продолжительность: 01:45:45
Перевод: Профессиональный (многоголосый закадровый) - 1-й канал
Cубтитры: нет
Оригинальная аудиодорожка: английский
Режиссер: Ральф Нельсон / Ralph Nelson
В ролях: Гленн Форд, Нэнси Кван, Род Тейлор, Сюзанн Плешетт, Джейн Расселл, Уолли Кокс, Нехемия Персофф, Марк Стивенс, Макс Шоуолтер, Констанс Тауэрс ...
Описание: Через пять минут после взлета в аэропорту Лос-Анджелеса разбивается авиалайнер с пятьюдесятью тремя пассажирами на борту. Выживает одна стюардесса. Сразу же появляется множество версий причин авиакатастрофы: от техногенных до возможной диверсии. Позиция самого авиаперевозчика — пилот Джек Сэвидж был пьян. Однако такая «официальная» версия совсем не устраивает Сэма МакБейна. В военное время МакБейн был вторым пилотом у Сэвиджа, а теперь сменил штурвал самолета на руководящую работу в авиакомпании. Несмотря на то, что в последнее время у них с Сэвиджом были непростые отношения, МакБейн решает доказать всем, что Джек не виновен,…. в ущерб собственному повышению по службе.
Доп. информация: Рип сделан из этого 720p BDRip-- --Fate Is the Hunter (1964)_HDRip_Sample_.avi-
-

Награды


-
-Качество видео: HDRip
Формат видео: AVI
Видео: 720x304 (2.37:1), 23.976 fps, XviD build 50 ~1604 kbps avg, 0.30 bit/pixel
Аудио 1: 48 kHz, AC3 Dolby Digital, 2/0 (L,R) ch, ~ 192 kbps, Русский
Аудио 2: 48 kHz, AC3 Dolby Digital, 1/0 (C) ch, ~192 kbps, Английский

AviInfo

File: Fate Is the Hunter (1964)_HDRip_.avi
Title: Fate Is the Hunter (1964)
Author: Ralph Nelson
Copyleft: Ripped_by_rjhlb777
Genre: Drama, Mystery, Thriller
Category: Movie
Comment: MVO ("1-й канал") + Original Eng
FileSize: 1515.08 Mb ( 1 588 676 608 bytes )
Play length: 01:45:45.255 (152134 frames)
Subtitles: Not Present
Video: 720x304 (2.37:1), 23.976 fps, XviD build 50 ~1604 kbps avg, 0.30 bit/pixel
Audio #1: 48 kHz, AC3 Dolby Digital, 2/0 (L,R) ch, ~192 kbps
Audio #2: 48 kHz, AC3 Dolby Digital, 1/0 (C) ch, ~192 kbps

MediaInfo

General
Complete name : C:\Temp\_RELEASES_\Fate Is the Hunter (1964)_HDRip_.avi
Format : AVI
Format/Info : Audio Video Interleave
File size : 1.48 GiB
Duration : 1h 45mn
Overall bit rate : 2 003 Kbps
Movie name : Fate Is the Hunter (1964)
Director : Ralph Nelson
Genre : Drama, Mystery, Thriller
Writing application : VirtualDubMod 1.5.10.3 | www.virtualdub-fr.org || (build 2550/release)
Original source form/Name : Movie
Copyright : Ripped_by_rjhlb777
Comment : MVO ("1-й канал") + Original Eng
Video
ID : 0
Format : MPEG-4 Visual
Format profile : Advanced Simple@L5
Format settings, BVOP : 1
Format settings, QPel : No
Format settings, GMC : No warppoints
Format settings, Matrix : Default (MPEG)
Codec ID : XVID
Codec ID/Hint : XviD
Duration : 1h 45mn
Bit rate : 1 605 Kbps
Width : 720 pixels
Height : 304 pixels
Display aspect ratio : 2.35:1
Frame rate : 23.976 (24000/1001) fps
Color space : YUV
Chroma subsampling : 4:2:0
Bit depth : 8 bits
Scan type : Progressive
Compression mode : Lossy
Bits/(Pixel*Frame) : 0.306
Stream size : 1.19 GiB (80%)
Writing library : XviD 1.2.1 (UTC 2008-12-04)
Audio #1
ID : 1
Format : AC-3
Format/Info : Audio Coding 3
Mode extension : CM (complete main)
Format settings, Endianness : Big
Codec ID : 2000
Duration : 1h 45mn
Bit rate mode : Constant
Bit rate : 192 Kbps
Channel(s) : 2 channels
Channel positions : Front: L R
Sampling rate : 48.0 KHz
Frame rate : 31.250 fps (1536 spf)
Compression mode : Lossy
Stream size : 145 MiB (10%)
Alignment : Split accross interleaves
Interleave, duration : 42 ms (1.00 video frame)
Interleave, preload duratio : 500 ms
Audio #2
ID : 2
Format : AC-3
Format/Info : Audio Coding 3
Mode extension : CM (complete main)
Format settings, Endianness : Big
Codec ID : 2000
Duration : 1h 45mn
Bit rate mode : Constant
Bit rate : 192 Kbps
Channel(s) : 1 channel
Channel positions : Front: C
Sampling rate : 48.0 KHz
Frame rate : 31.250 fps (1536 spf)
Compression mode : Lossy
Stream size : 145 MiB (10%)
Alignment : Split accross interleaves
Interleave, duration : 42 ms (1.00 video frame)
Interleave, preload duratio : 500 ms


Показать сообщения:    

Текущее время: 26-Май 08:26

Часовой пояс: UTC + 3


Вы не можете начинать темы
Вы не можете отвечать на сообщения
Вы не можете редактировать свои сообщения
Вы не можете удалять свои сообщения
Вы не можете голосовать в опросах
Вы не можете прикреплять файлы к сообщениям
Вы не можете скачивать файлы


Реклама

Сайт не предоставляет электронные версии произведений, а занимается лишь коллекционированием и каталогизацией ссылок, присылаемых и публикуемых на форуме нашими читателями. Если вы являетесь правообладателем какого-либо представленного материала и не желаете, чтобы ссылка на него находилась в нашем каталоге, свяжитесь с нами, и мы незамедлительно удалим ее. Файлы для обмена на трекере предоставлены пользователями сайта, и администрация не несет ответственности за их содержание. Просьба не заливать файлы, защищенные авторскими правами, а также файлы нелегального содержания!