[Цитировать]


Название на русском: Смертельное оружие 2
Название на английском: Lethal Weapon 2
Страна: США
Жанр: Боевик, Триллер
Год выпуска: 1989
Продолжительность: 01:54:27
Перевод: Профессиональный (многоголосый закадровый)
Режиссер: Ричард Доннер
В ролях: Мэл Гибсон, Дэнни Гловер, Джо Пеши, Джосс Экленд, Деррик О’Коннор, Пэтси Кензит, Дарлин Лав, Трэйси Вульф, Стив Кэхэн, Марк Ролстон
Описание: Мартин и его напарник Роджер напали на след могущественной наркомафии, которой заправляли выходцы из Южно-Африканского Союза. Полиции удалось арестовать одного из мошенников, помогавших мафиозо отмывать их грязные деньги.
Этого важного свидетеля поручили охранять Мартину и Роджеру. Сами бандиты были неуязвимы, так как пользовались дипломатической неприкосновенностью…

Доп. информация

Дата мировой премьеры: 7 июля 1989
Дата выхода Blu-Ray релиза: 16 ноября 2010, «Юниверсал Пикчерс Рус»
Дата выхода DVD релиза: 31 марта 2011, «ВС трейд»
Сэмпл: http://rusfolder.com/41860425
Качество видео: BDRip
Видео: MPEG-4 AVC/H.264 ~2640 Кбит/сек 1024x424
Аудио: Русский, AC3 5.1, 384 Кбит/сек, 48 kHz (Дублированный, Мост-Видео)
Аудио 2: Русский, AC3 2.0, 192 Кбит/сек, 48 kHz (Многоголосый закадровый, Россия)
Аудио 3: Русский, AC3 2.0, 192 Кбит/сек, 48 kHz (Авторский, А. Гаврилов)
Аудио 4: Русский, AC3 2.0, 192 Кбит/сек, 48 kHz (Авторский, М.Яроцкий «Киберпанк», без цензуры)
Доп. информация о субтитрах: Отсутствуют

MediaInfo

Общее
Уникальный идентификатор : 201676089661078485636711152665689588013 (0x97B966EA6C6E3BB7AD3331D9DB10012D)
Полное имя : F:\Downloads\Смертельное оружие 2.mkv
Формат : Matroska
Версия формата : Version 4 / Version 2
Размер файла : 2,88 Гбайт
Продолжительность : 1 ч. 54 м.
Общий поток : 3602 Кбит/сек
Дата кодирования : UTC 2014-09-29 11:46:56
Программа кодирования : mkvmerge v7.0.0 ('Where We Going') 32bit built on Jun 9 2014 15:08:34
Библиотека кодирования : libebml v1.3.0 + libmatroska v1.4.1
DURATION : 01:54:27.168000000
NUMBER_OF_FRAMES : 214599
NUMBER_OF_BYTES : 164812032
_STATISTICS_WRITING_APP : mkvmerge v7.0.0 ('Where We Going') 32bit built on Jun 9 2014 15:08:34
_STATISTICS_WRITING_DATE_UTC : 2014-09-29 11:46:56
_STATISTICS_TAGS : BPS DURATION NUMBER_OF_FRAMES NUMBER_OF_BYTES
Видео
Идентификатор : 1
Формат : AVC
Формат/Информация : Advanced Video Codec
Профиль формата : High@L4.1
Параметр CABAC формата : Да
Параметр ReFrames формата : 8 кадров
Идентификатор кодека : V_MPEG4/ISO/AVC
Продолжительность : 1 ч. 54 м.
Битрейт : 2640 Кбит/сек
Ширина : 1024 пикселя
Высота : 424 пикселя
Соотношение сторон : 2,40:1
Режим частоты кадров : Постоянный
Частота кадров : 23,976 кадра/сек
Цветовое пространство : YUV
Субдискретизация насыщенности : 4:2:0
Битовая глубина : 8 бит
Тип развёртки : Прогрессивная
Бит/(Пиксели*Кадры) : 0.254
Размер потока : 2,05 Гбайт (71%)
Заголовок : Lethal Weapon 2
Библиотека кодирования : x264 core 125 r2208 d9d2288
Настройки программы : cabac=1 / ref=8 / deblock=1:-1:-1 / analyse=0x3:0x133 / me=umh / subme=9 / psy=1 / psy_rd=1.00:0.10 / mixed_ref=1 / me_range=32 / chroma_me=1 / trellis=2 / 8x8dct=1 / cqm=0 / deadzone=21,11 / fast_pskip=0 / chroma_qp_offset=-3 / threads=6 / lookahead_threads=1 / sliced_threads=0 / nr=0 / decimate=1 / interlaced=0 / bluray_compat=0 / constrained_intra=0 / bframes=3 / b_pyramid=2 / b_adapt=2 / b_bias=0 / direct=3 / weightb=1 / open_gop=0 / weightp=2 / keyint=250 / keyint_min=25 / scenecut=40 / intra_refresh=0 / rc_lookahead=60 / rc=2pass / mbtree=1 / bitrate=2640 / ratetol=1.0 / qcomp=0.60 / qpmin=0 / qpmax=69 / qpstep=4 / cplxblur=20.0 / qblur=0.5 / ip_ratio=1.40 / aq=1:1.00
Язык : English
Default : Да
Forced : Нет
Аудио #1
Идентификатор : 2
Формат : AC-3
Формат/Информация : Audio Coding 3
Расширение режима : CM (complete main)
Параметр Endianness формата : Big
Идентификатор кодека : A_AC3
Продолжительность : 1 ч. 54 м.
Вид битрейта : Постоянный
Битрейт : 384 Кбит/сек
Каналы : 6 каналов
Расположение каналов : Front: L C R, Side: L R, LFE
Частота : 48,0 КГц
Битовая глубина : 16 бит
Метод сжатия : С потерями
Размер потока : 314 Мбайт (11%)
Заголовок : Дублированный, Мост-Видео
Язык : Russian
Default : Да
Forced : Нет
Аудио #2
Идентификатор : 3
Формат : AC-3
Формат/Информация : Audio Coding 3
Расширение режима : CM (complete main)
Параметр Endianness формата : Big
Идентификатор кодека : A_AC3
Продолжительность : 1 ч. 54 м.
Вид битрейта : Постоянный
Битрейт : 192 Кбит/сек
Каналы : 2 канала
Расположение каналов : Front: L R
Частота : 48,0 КГц
Битовая глубина : 16 бит
Метод сжатия : С потерями
Размер потока : 157 Мбайт (5%)
Заголовок : Многоголосый закадровый, Россия
Язык : Russian
Default : Нет
Forced : Нет
Аудио #3
Идентификатор : 4
Формат : AC-3
Формат/Информация : Audio Coding 3
Расширение режима : CM (complete main)
Параметр Endianness формата : Big
Идентификатор кодека : A_AC3
Продолжительность : 1 ч. 54 м.
Вид битрейта : Постоянный
Битрейт : 192 Кбит/сек
Каналы : 2 канала
Расположение каналов : Front: L R
Частота : 48,0 КГц
Битовая глубина : 16 бит
Метод сжатия : С потерями
Размер потока : 157 Мбайт (5%)
Заголовок : Авторский, А. Гаврилов
Язык : Russian
Default : Нет
Forced : Нет
Аудио #4
Идентификатор : 5
Формат : AC-3
Формат/Информация : Audio Coding 3
Расширение режима : CM (complete main)
Параметр Endianness формата : Big
Идентификатор кодека : A_AC3
Продолжительность : 1 ч. 54 м.
Вид битрейта : Постоянный
Битрейт : 192 Кбит/сек
Каналы : 2 канала
Расположение каналов : Front: L R
Частота : 48,0 КГц
Битовая глубина : 16 бит
Метод сжатия : С потерями
Размер потока : 157 Мбайт (5%)
Заголовок : Авторский, М.Яроцкий «Киберпанк», без цензуры
Язык : Russian
Default : Нет
Forced : Нет

Скриншоты



Показать сообщения:    

Текущее время: 23-Июн 22:09

Часовой пояс: UTC + 3


Вы не можете начинать темы
Вы не можете отвечать на сообщения
Вы не можете редактировать свои сообщения
Вы не можете удалять свои сообщения
Вы не можете голосовать в опросах
Вы не можете прикреплять файлы к сообщениям
Вы не можете скачивать файлы


Реклама

Сайт не предоставляет электронные версии произведений, а занимается лишь коллекционированием и каталогизацией ссылок, присылаемых и публикуемых на форуме нашими читателями. Если вы являетесь правообладателем какого-либо представленного материала и не желаете, чтобы ссылка на него находилась в нашем каталоге, свяжитесь с нами, и мы незамедлительно удалим ее. Файлы для обмена на трекере предоставлены пользователями сайта, и администрация не несет ответственности за их содержание. Просьба не заливать файлы, защищенные авторскими правами, а также файлы нелегального содержания!