[Цитировать]


Название на русском: Смертельное оружие
Название на английском: Lethal Weapon
Страна: США
Жанр: Боевик, Триллер
Год выпуска: 1987
Продолжительность: 01:49:37
Перевод: Профессиональный (многоголосый закадровый)
Режиссер: Ричард Доннер
В ролях: Мэл Гибсон, Дэнни Гловер, Гэри Бьюзи, Митч Райан, Том Аткинс, Дарлин Лав, Трэйси Вульф, Джеки Суонсон, Дэймон Хайнс, Эбони Смит
Описание: Лос-анджелесский полицейский Мартин Риггз смел и безрассуден, он буквально лезет под пули, не боясь за свою жизнь. Семьянин Роджер Мертаф старше и осторожнее. Двое полицейских, ветераны Вьетнама, расследуют дело, связанное с подозрительным самоубийством девушки. Нить поисков приводит их к торговцам наркотиками, которые также оказываются ветеранами вьетнамской войны, сплоченными в крепкую преступную организацию.

Доп. информация

Режиссёрский вариант фильма имеет хронометраж 117 минут.
Согласно статье в июньском номере 2007 года «Vanity Fair», кандидатура Брюса Уиллиса рассматривалась на роль Риггза.
По словам Гэри Бьюзи, он получил роль Джошуа потому, что продюсеры искали актера, способного достоверно изобразить реальную угрозу для персонажа Мэла Гибсона. Бьюзи признает «Смертельное оружие» фильмом, придавшим второе дыхание для его карьеры.
Франко Дзеффирелли решил предложить Мэлу Гибсону роль Гамлета после того, как увидел сцену, где Риггз пытается совершить самоубийство.
Фильм посвящен памяти Дара Робинсона, известнейшего каскадера, погибшего в автомобильной аварии во время пост-продакшна картины.
Для фильма были сняты альтернативные начало и концовка, которые можно посмотреть на DVD «Смертельное оружие 4». Изначально фильм должен был начинаться со сцены, в которой Мартин Риггз пьёт в одиночестве в каком-то баре, где к нему пристают несколько отморозков, требующих у него денег. Риггз говорит, что все свои деньги он хранит в банке, а также говорит парням отстать от него. Конечно, они его не слушаются, и Риггз жестоко избивает их. Бармен дает Риггзу бесплатную бутылку спиртного и говорит, чтобы он больше здесь не появлялся. Уже по ходу съёмок Ричард Доннер решил представить Риггза в более дружелюбной манере и снял сцену, где Мартин просыпается в своем трейлере. Альтернативная концовка представляла собой сцену, где Мёрто говорит Риггзу, что подумывает о пенсии, но Мартин отговаривает его от принятия данного решения.
В одной из сцен фильма на заднем плане можно заметить кинотеатр, где идут «Пропащие ребята» (1987), продюсером которых был Ричард Доннер.
В сцене, где героиня Джеки Суонсон падает с высокоэтажного здания, Джеки отказалась от услуг дублеров и сама исполнила трюк.
Количество убитых: 26.
Леонарду Нимою предлагали поставить фильм, но он отказался, предпочтя поработать над «Тремя мужчинами и младенцем» (1987).
В фильме Роджеру Мёрто около 50. На момент съёмок Дэнни Гловеру было 40.
На холодильнике в доме сержанта Мёртоу отчетлива видна наклейка «END APARTHEID NOW / FREE SOUTH AFRICA» («Немедленно покончите с апартеидом / Освободите Южную Африку»). В следующем фильме серии Риггз и Мёртоу будут бороться и с апартеидом в лице преступников из южноафриканского консульства.
Сэмпл: http://rusfolder.com/41854162
Качество видео: BDRip
Видео: MPEG-4 AVC/H.264 ~2815 Кбит/сек 1024x576
Аудио: Русский, AC3 5.1, 384 Кбит/сек, 48 kHz (Дублированный, Мост-Видео)
Аудио 2: Русский, AC3 2.0, 192 Кбит/сек, 48 kHz (Многоголосый закадровый, Россия)
Аудио 3: Русский, AC3 2.0, 192 Кбит/сек, 48 kHz (Авторский, А. Гаврилов)
Аудио 4: Русский, AC3 2.0, 192 Кбит/сек, 48 kHz (Авторский, М.Яроцкий «Киберпанк», без цензуры)
Доп. информация о субтитрах: Отсутствуют

MediaInfo

Общее
Уникальный идентификатор : 245912942713709022736137699525970220134 (0xB9011C2983E36EE2B13522283171D466)
Полное имя : F:\Downloads\Смертельное оружие.mkv
Формат : Matroska
Версия формата : Version 4 / Version 2
Размер файла : 2,89 Гбайт
Продолжительность : 1 ч. 49 м.
Общий поток : 3776 Кбит/сек
Дата кодирования : UTC 2014-09-29 09:14:42
Программа кодирования : mkvmerge v7.0.0 ('Where We Going') 32bit built on Jun 9 2014 15:08:34
Библиотека кодирования : libebml v1.3.0 + libmatroska v1.4.1
DURATION : 01:49:37.056000000
NUMBER_OF_FRAMES : 205533
NUMBER_OF_BYTES : 157849344
_STATISTICS_WRITING_APP : mkvmerge v7.0.0 ('Where We Going') 32bit built on Jun 9 2014 15:08:34
_STATISTICS_WRITING_DATE_UTC : 2014-09-29 09:14:42
_STATISTICS_TAGS : BPS DURATION NUMBER_OF_FRAMES NUMBER_OF_BYTES
Видео
Идентификатор : 1
Формат : AVC
Формат/Информация : Advanced Video Codec
Профиль формата : High@L4.1
Параметр CABAC формата : Да
Параметр ReFrames формата : 8 кадров
Идентификатор кодека : V_MPEG4/ISO/AVC
Продолжительность : 1 ч. 49 м.
Битрейт : 2815 Кбит/сек
Ширина : 1024 пикселя
Высота : 576 пикселей
Соотношение сторон : 16:9
Режим частоты кадров : Постоянный
Частота кадров : 23,976 кадра/сек
Цветовое пространство : YUV
Субдискретизация насыщенности : 4:2:0
Битовая глубина : 8 бит
Тип развёртки : Прогрессивная
Бит/(Пиксели*Кадры) : 0.199
Размер потока : 2,10 Гбайт (73%)
Заголовок : Lethal Weapon
Библиотека кодирования : x264 core 125 r2208 d9d2288
Настройки программы : cabac=1 / ref=8 / deblock=1:-1:-1 / analyse=0x3:0x133 / me=umh / subme=9 / psy=1 / psy_rd=1.00:0.10 / mixed_ref=1 / me_range=32 / chroma_me=1 / trellis=2 / 8x8dct=1 / cqm=0 / deadzone=21,11 / fast_pskip=0 / chroma_qp_offset=-3 / threads=6 / lookahead_threads=1 / sliced_threads=0 / nr=0 / decimate=1 / interlaced=0 / bluray_compat=0 / constrained_intra=0 / bframes=3 / b_pyramid=2 / b_adapt=2 / b_bias=0 / direct=3 / weightb=1 / open_gop=0 / weightp=2 / keyint=250 / keyint_min=25 / scenecut=40 / intra_refresh=0 / rc_lookahead=60 / rc=2pass / mbtree=1 / bitrate=2815 / ratetol=1.0 / qcomp=0.60 / qpmin=0 / qpmax=69 / qpstep=4 / cplxblur=20.0 / qblur=0.5 / ip_ratio=1.40 / aq=1:1.00
Язык : English
Default : Да
Forced : Нет
Аудио #1
Идентификатор : 2
Формат : AC-3
Формат/Информация : Audio Coding 3
Расширение режима : CM (complete main)
Параметр Endianness формата : Big
Идентификатор кодека : A_AC3
Продолжительность : 1 ч. 49 м.
Вид битрейта : Постоянный
Битрейт : 384 Кбит/сек
Каналы : 6 каналов
Расположение каналов : Front: L C R, Side: L R, LFE
Частота : 48,0 КГц
Битовая глубина : 16 бит
Метод сжатия : С потерями
Размер потока : 301 Мбайт (10%)
Заголовок : Дублированный, Мост-Видео
Язык : Russian
Default : Да
Forced : Нет
Аудио #2
Идентификатор : 3
Формат : AC-3
Формат/Информация : Audio Coding 3
Расширение режима : CM (complete main)
Параметр Endianness формата : Big
Идентификатор кодека : A_AC3
Продолжительность : 1 ч. 49 м.
Вид битрейта : Постоянный
Битрейт : 192 Кбит/сек
Каналы : 2 канала
Расположение каналов : Front: L R
Частота : 48,0 КГц
Битовая глубина : 16 бит
Метод сжатия : С потерями
Размер потока : 151 Мбайт (5%)
Заголовок : Многоголосый закадровый, Россия
Язык : Russian
Default : Нет
Forced : Нет
Аудио #3
Идентификатор : 4
Формат : AC-3
Формат/Информация : Audio Coding 3
Расширение режима : CM (complete main)
Параметр Endianness формата : Big
Идентификатор кодека : A_AC3
Продолжительность : 1 ч. 49 м.
Вид битрейта : Постоянный
Битрейт : 192 Кбит/сек
Каналы : 2 канала
Расположение каналов : Front: L R
Частота : 48,0 КГц
Битовая глубина : 16 бит
Метод сжатия : С потерями
Размер потока : 151 Мбайт (5%)
Заголовок : Авторский, А. Гаврилов
Язык : Russian
Default : Нет
Forced : Нет
Аудио #4
Идентификатор : 5
Формат : AC-3
Формат/Информация : Audio Coding 3
Расширение режима : CM (complete main)
Параметр Endianness формата : Big
Идентификатор кодека : A_AC3
Продолжительность : 1 ч. 49 м.
Вид битрейта : Постоянный
Битрейт : 192 Кбит/сек
Каналы : 2 канала
Расположение каналов : Front: L R
Частота : 48,0 КГц
Битовая глубина : 16 бит
Метод сжатия : С потерями
Размер потока : 151 Мбайт (5%)
Заголовок : Авторский, М.Яроцкий
Язык : Russian
Default : Нет
Forced : Нет

Скриншоты



Показать сообщения:    

Текущее время: 26-Май 08:36

Часовой пояс: UTC + 3


Вы не можете начинать темы
Вы не можете отвечать на сообщения
Вы не можете редактировать свои сообщения
Вы не можете удалять свои сообщения
Вы не можете голосовать в опросах
Вы не можете прикреплять файлы к сообщениям
Вы не можете скачивать файлы


Реклама

Сайт не предоставляет электронные версии произведений, а занимается лишь коллекционированием и каталогизацией ссылок, присылаемых и публикуемых на форуме нашими читателями. Если вы являетесь правообладателем какого-либо представленного материала и не желаете, чтобы ссылка на него находилась в нашем каталоге, свяжитесь с нами, и мы незамедлительно удалим ее. Файлы для обмена на трекере предоставлены пользователями сайта, и администрация не несет ответственности за их содержание. Просьба не заливать файлы, защищенные авторскими правами, а также файлы нелегального содержания!