Реклама



 

[Цитировать]


Название на русском: Варкрафт
Название на английском: Warcraft
Страна: США
Жанр: Боевик, приключения, фэнтези
Год выпуска: 2016
Продолжительность: 02:01:04
Перевод: Профессиональный (дублированный)
Доп. инфо о переводе: (Line)
Cубтитры: Корейские (вшитые)
Режиссер: Дункан Джонс / Duncan Jones
В ролях: Трэвис Фиммел (Anduin Lothar), Пола Пэттон (Garona), Бен Фостер (Medivh), Доминик Купер (Llane Wrynn), Тоби Кеббелл (Durotan / Antonidas), Бен Шнетцер (Khadgar), Роберт Казински (Orgrim), Клэнси Браун (Blackhand), Дэниэл Ву (Gul'dan), Рут Негга (Lady Taria), Анна Галвин (Draka), Каллум Кит Ренни (Moroes)
Описание: Борьба справедливости и беспредела, жажды власти и свободы не закончится никогда, покуда есть темные и светлые силы необъятной Вселенной, где правят вершители добра и зла. Кто из них станет властвовать единолично – неизвестно даже им самим. Пока каждый из них верит в свою несокрушимость, будет идти тяжелая битва с применением магических сил, древнего оружия предков и предсказаний, основанных на жажде вселенской власти. Людям грозит полное исчезновение и истребление. Грозные орки уже вторглись в их жизнь. Им подвластно многое, хотя в их стане есть очень важный клин, который способен изменить весь их замысел. Бок о бок ходят они с ним, называясь одной Ордой, но имеющих разные цели. Разобщенность взглядов – это смертельный провал среди тех, кто назывался одной стороной. Он - единственный, кто вместе со своим кланом стремится к спасению своего народа, преграждая путь тем собратьям, которым власть затмила чувство долга, толкая на гибель массы своего окружения во имя личной победы. Они не принадлежат к роду человеческому. У них есть вождь – истинный хранитель их спокойствия, который не даст развитию бесконечной уничтожающей вражде между противниками.
Доп. информация: Бюджет фильма : -- 160 миллионов долларов.
Рейтинг фильма : -- IMDB / 7,4
Сэмпл: http://multi-up.com/1110837
Качество видео: WEBRip
Формат видео: AVI
Видео: XviD, 704x288, (2,40:1), 23,976 fps, 727 Кбит/сек, 8 бит
Аудио: Русский (MP3, 2 ch, 48,0 KHz, 128 Kbps)

MediaInfo

Общее
Полное имя : F:\Видеофильмы\В и д е о\Варкрафт (приключения фэнтази 2016г).avi
Формат : AVI
Формат/Информация : Audio Video Interleave
Размер файла : 749 Мбайт
Продолжительность : 2 ч. 1 м.
Общий поток : 865 Кбит/сек
Программа кодирования : VirtualDubMod 1.5.10.2 (build 2540/release)
Библиотека кодирования : VirtualDubMod build 2540/release
Видео
Идентификатор : 0
Формат : MPEG-4 Visual
Профиль формата : Advanced Simple@L5
Параметр BVOP формата : 2
Параметр QPel формата : Нет
Параметр GMC формата : Без точки перехода
Параметр матрицы формата : Выборочная
Идентификатор кодека : XVID
Идентификатор кодека/Подсказка : XviD
Продолжительность : 2 ч. 1 м.
Битрейт : 727 Кбит/сек
Ширина : 704 пикселя
Высота : 288 пикселей
Соотношение сторон : 2,40:1
Частота кадров : 23,976 (23976/1000) кадра/сек
Цветовое пространство : YUV
Субдискретизация насыщенности : 4:2:0
Битовая глубина : 8 бит
Тип развёртки : Прогрессивная
Метод сжатия : С потерями
Бит/(Пиксели*Кадры) : 0.150
Размер потока : 630 Мбайт (84%)
Библиотека кодирования : XviD 1.2.0.dev47 (UTC 2006-11-01)
Аудио
Идентификатор : 1
Формат : MPEG Audio
Версия формата : Version 1
Профиль формата : Layer 3
Идентификатор кодека : 55
Идентификатор кодека/Подсказка : MP3
Продолжительность : 2 ч. 1 м.
Вид битрейта : Постоянный
Битрейт : 128 Кбит/сек
Каналы : 2 канала
Частота : 48,0 КГц
Метод сжатия : С потерями
Размер потока : 111 Мбайт (15%)
Выравнивание : Соединение по промежуткам
Продолжительность промежутка : 42 мс. (1,00 видеокадр)
Время предзагрузки промежутка : 504 мс.
Библиотека кодирования : LAME3.99r
Настройки программы : -m s -V 4 -q 2 -lowpass 17 -b 128

Скриншоты



Показать сообщения:    

Текущее время: 21-Фев 10:34

Часовой пояс: UTC + 3


Вы не можете начинать темы
Вы не можете отвечать на сообщения
Вы не можете редактировать свои сообщения
Вы не можете удалять свои сообщения
Вы не можете голосовать в опросах
Вы не можете прикреплять файлы к сообщениям
Вы не можете скачивать файлы

Реклама

Сайт не предоставляет электронные версии произведений, а занимается лишь коллекционированием и каталогизацией ссылок, присылаемых и публикуемых на форуме нашими читателями. Если вы являетесь правообладателем какого-либо представленного материала и не желаете, чтобы ссылка на него находилась в нашем каталоге, свяжитесь с нами, и мы незамедлительно удалим ее. Файлы для обмена на трекере предоставлены пользователями сайта, и администрация не несет ответственности за их содержание. Просьба не заливать файлы, защищенные авторскими правами, а также файлы нелегального содержания!